<?xml version="1.0" standalone="no"?>
<!DOCTYPE svg PUBLIC "-//W3C//DTD SVG 1.1//EN" "http://www.w3.org/Graphics/SVG/1.1/DTD/svg11.dtd" >
<!--
2015-3-6: Created.
-->
<svg xmlns="http://www.w3.org/2000/svg">
<metadata>
Created by FontForge 20120731 at Fri Mar  6 21:31:49 2015
 By Ubuntu
Created by Ubuntu with FontForge 2.0 (http://fontforge.sf.net)
</metadata>
<defs>
<font id="fontcustom" horiz-adv-x="512" >
  <font-face 
    font-family="fontcustom"
    font-weight="500"
    font-stretch="normal"
    units-per-em="512"
    panose-1="2 0 6 9 0 0 0 0 0 0"
    ascent="448"
    descent="-64"
    bbox="14.6084 -58.3858 495.8 438.539"
    underline-thickness="25.6"
    underline-position="-51.2"
    unicode-range="U+F100-F13C"
  />
    <missing-glyph />
    <glyph glyph-name="uniF101" unicode="&#xf101;" 
d="M102.941 45.7764h314.148v-20.5059h-314.148h-20.4912v20.5059v314.149h20.4912v-314.149zM148.894 139.19c0 24.7682 12.3841 37.1523 37.1523 37.1523s37.1523 -12.3841 37.1523 -37.1523c0 -24.7676 -12.3841 -37.1514 -37.1523 -37.1514
s-37.1523 12.3838 -37.1523 37.1514zM220.079 210.405c0 24.7773 12.389 37.166 37.167 37.166c24.7773 0 37.166 -12.3887 37.166 -37.166c0 -24.778 -12.3887 -37.167 -37.166 -37.167c-24.778 0 -37.167 12.389 -37.167 37.167zM291.294 281.605
c0 24.7682 12.3841 37.1523 37.1523 37.1523s37.1523 -12.3841 37.1523 -37.1523c0 -24.7687 -12.3841 -37.1528 -37.1523 -37.1523c-24.7682 0 -37.1523 12.3841 -37.1523 37.1523z" />
    <glyph glyph-name="uniF10E" unicode="&#xf10e;" 
d="M109.248 228.891l101.677 -104.332v-141.843h-0.805664v-0.457031h-83.3838v61.2227l-85.0908 112.409c-3.40137 4.21875 -5.625 9.37402 -5.625 15.0107v172.742c0 13.5088 10.9844 24.5059 24.5537 24.5059c13.4971 0 24.4941 -11.0088 24.4941 -24.5059v-99.7539
c-5.9375 -1.28613 -11.5859 -3.80957 -16.1055 -8.2207c-12.9922 -12.6914 -13.3047 -33.6035 -0.625 -46.6436l46.416 -47.7139l6.30957 6.16602l-46.4756 47.6172c-9.27832 9.60254 -9.07422 24.9629 0.432617 34.3252c2.99219 2.82422 6.51367 4.81934 10.2881 5.88867
c4.02539 1.1543 8.20801 1.21387 12.2227 0.360352c4.51855 -1.11719 8.54492 -3.4375 11.7178 -6.77832zM405.42 228.891c3.18457 3.34082 7.21094 5.66113 11.7178 6.77832c3.99023 0.853516 8.20898 0.793945 12.1992 -0.360352
c3.71387 -1.06934 7.33105 -3.06445 10.2637 -5.88867c9.53027 -9.3623 9.73535 -24.7227 0.46875 -34.3252l-46.5117 -47.6172l6.3457 -6.16602l46.4395 47.7139c12.668 13.04 12.3555 33.9521 -0.661133 46.6436c-4.54297 4.41113 -10.167 6.93457 -16.1289 8.2207
v99.7539c0 13.4971 11.0215 24.5059 24.5059 24.5059c13.5566 0 24.542 -10.9971 24.542 -24.5059v-172.742c0 -5.63672 -2.22363 -10.792 -5.625 -15.0107l-85.0547 -112.409v-61.2227h-83.4326v0.457031h-0.804688v141.843zM257.28 190.071
c-26.5615 0 -49.3486 9.57812 -67.9648 28.3037c-18.9893 18.8203 -28.2676 41.4033 -28.2676 68.084c0 26.5137 9.29004 49.2998 28.2676 68.1211c18.6289 18.833 41.416 28.0635 67.9648 28.0635c26.6445 0 49.167 -9.23047 68.0723 -28.0635
c18.8691 -18.8086 28.2559 -41.6074 28.2559 -68.1211c0 -26.6807 -9.39844 -49.2637 -28.2559 -68.084c-18.9053 -18.7129 -41.4277 -28.3037 -68.0723 -28.3037z" />
    <glyph glyph-name="uniF10F" unicode="&#xf10f;" 
d="M340.388 168.329l88.2881 -56.4502l-98.083 9.95117l44.5762 -123.683l-89.2969 92.3262l-27.7266 -53.6387l-26.8496 67.0635l-103.804 -86.7617l34.9014 123.49l-49.2031 -8.99023l30.4307 31.3203l-105.955 61.9199l117.096 -8.17285
c-12.3906 25.5391 -34.541 67.9648 -34.541 67.9648l73.0967 -16.2373l-25.9238 132.479l82.0264 -105.69l30.1904 78.2646l19.9746 -83.8896l71.7021 74.251l-27.2939 -117.709l101.148 -10.7207z" />
    <glyph glyph-name="uniF115" unicode="&#xf115;" 
d="M85.7998 303.201v16.5859c0 9.13379 7.45215 16.5732 16.5859 16.5732h33.1592c9.13379 0 16.585 -7.45215 16.585 -16.5732v-16.5859c0.0126953 -9.13379 -66.3301 -9.13379 -66.3301 0zM417.463 303.201c27.4863 0 49.7559 -22.2705 49.7559 -49.7568v-165.831
c0 -27.4746 -22.2695 -49.7568 -49.7559 -49.7568h-331.663c-27.4736 0 -49.7441 22.2822 -49.7441 49.7568v165.831c0 27.4863 22.2705 49.7568 49.7441 49.7568h331.663zM152.143 236.871v33.1709h-66.3428v-33.1709h66.3428zM317.974 70.0664
c55.4648 0 100.462 44.9854 100.462 100.475s-44.9971 100.475 -100.462 100.475c-55.4775 0 -100.475 -44.9854 -100.475 -100.475s44.9971 -100.475 100.475 -100.475zM317.974 107.3c-34.9141 0 -63.2295 28.3037 -63.2295 63.2295
c0 34.9131 28.3037 63.2285 63.2295 63.2285s63.2295 -28.3154 63.2295 -63.2285c0 -34.9141 -28.3164 -63.2295 -63.2295 -63.2295z" />
    <glyph glyph-name="uniF128" unicode="&#xf128;" 
d="M264.695 417.558c125.089 0 226.477 -101.425 226.477 -226.489c0 -125.088 -101.388 -226.5 -226.477 -226.5c-125.076 0 -226.488 101.412 -226.488 226.5c0 125.077 101.412 226.489 226.488 226.489zM354.895 226.307c9.10938 6.5625 17.0176 14.7588 23.2432 24.085
c-8.36426 -3.70117 -17.3301 -6.20117 -26.7412 -7.33105c9.62695 5.76855 16.9941 14.8906 20.4434 25.7559c-8.98926 -5.32422 -18.9531 -9.19434 -29.5889 -11.2734c-8.46094 9.03809 -20.5996 14.6982 -34.001 14.6982c-25.6953 0 -46.5957 -20.8398 -46.5957 -46.5469
c0 -3.6543 0.277344 -7.19922 1.08203 -10.6006c-38.6875 1.94727 -73.2285 20.4551 -96.208 48.6387c-4.00195 -6.89844 -6.80273 -14.8906 -6.80273 -23.4121c0 -16.1406 7.1875 -30.4062 19.6621 -38.748c-7.61914 0.228516 -23.1475 2.34375 -23.1475 5.80566v-0.577148
c0 -22.5703 18.0996 -41.3799 39.4326 -45.6338c-3.91797 -1.09375 -5.96094 -1.64746 -10.2158 -1.64746c-3.00391 0 -5.9248 0.277344 -8.76074 0.817383c5.91309 -18.4844 23.0996 -31.957 43.4707 -32.3057c-15.9248 -12.499 -36.0078 -19.9385 -57.8096 -19.9385
c-3.74902 0 -7.46289 0.216797 -11.1045 0.661133c20.5996 -13.1963 45.0811 -20.9121 71.3418 -20.9121c85.6436 0 132.443 70.9209 132.443 132.443c0 2.01953 -0.0478516 4.03906 -0.143555 6.02148z" />
    <glyph glyph-name="uniF107" unicode="&#xf107;" 
d="M133.885 148.062v39.1738h227.84v-39.1738h-227.84z" />
    <glyph glyph-name="uniF122" unicode="&#xf122;" 
d="M396.995 329.017h58.1934v-65.1279v-86.7012h-50.6094v84.3457h-236.152v-66.126l-93.792 93.4561l93.8047 93.4561v-53.3027h228.556zM337.119 92.8535v71.3535l92.9385 -93.4678l-92.9385 -95.9678v50.6104h-228.917h-57.8564v65.1035v86.7139h50.6094v-84.3457
h236.164z" />
    <glyph glyph-name="uniF12A" unicode="&#xf12a;" 
d="M153.557 -7.6709v0c-5.01172 0 -9.02539 4.01465 -9.02539 9.02637v250.219h258.776v-250.219c0 -4.96387 -4.0625 -9.02637 -9.01367 -9.02637h-240.737zM325.874 203.045v-162.234c0 -8.16016 6.63379 -14.7578 14.7578 -14.7578h0.300781
c8.17285 0 14.7588 6.63379 14.7588 14.7578v162.234c0 8.17188 -6.63477 14.7578 -14.7588 14.7578h-0.300781c-8.17188 0 -14.7578 -6.63379 -14.7578 -14.7578zM259.005 203.045v-162.234c0 -8.16016 6.63379 -14.7578 14.7578 -14.7578h0.3125
c8.17285 0 14.7588 6.63379 14.7588 14.7578v162.234c0 8.17188 -6.63477 14.7578 -14.7588 14.7578h-0.3125c-8.17188 0 -14.7578 -6.63379 -14.7578 -14.7578zM192.159 203.045v-162.234c0 -8.16016 6.63379 -14.7578 14.7588 -14.7578h0.3125
c8.17188 0 14.7461 6.63379 14.7461 14.7578v162.234c0 8.17188 -6.62207 14.7578 -14.7461 14.7578h-0.3125c-8.16113 0 -14.7588 -6.63379 -14.7588 -14.7578zM192.159 203.045zM331.595 336.471h-18.0879v15.7803c0 4.95117 -4.06152 9.01367 -9.02539 9.01367h-61.2324
c-4.95215 0 -9.01367 -4.0625 -9.01367 -9.01367v-15.7803h-18.04v20.2871c0 12.4385 10.1074 22.5459 22.5469 22.5459h70.3066c12.4385 0 22.5459 -10.1074 22.5459 -22.5459v-20.2871zM331.595 336.471zM133.258 309.406v0c0 4.99902 4.05078 9.01367 9.01367 9.01367
h263.235c4.96289 0 9.02539 -4.0625 9.02539 -9.01367v-30.7666c0 -4.96387 -4.0625 -9.02637 -9.02539 -9.02637h-263.235c-4.96289 0 -9.01367 4.0625 -9.01367 9.02637v30.7666zM133.258 309.406z" />
    <glyph glyph-name="uniF12B" unicode="&#xf12b;" 
d="M304.698 334.993l84.0312 -84.0322l-212.711 -212.71l-83.9707 84.0312zM452.498 355.256v0c11.2246 -11.2373 11.2246 -29.3486 0 -40.5742l-41.8721 -41.8711l-84.0312 84.0312l35.8984 35.8867c14.5303 14.4941 38.0498 14.4941 52.5195 0zM48.0732 4.17969
l21.2236 95.3525l83.9834 -84.0322l-93.6455 -22.7021c-6.875 -1.68262 -13.0879 4.49512 -11.5615 11.3818zM48.0732 4.17969z" />
    <glyph glyph-name="uniF102" unicode="&#xf102;" 
d="M257.203 393.375c103.24 0 186.943 -83.7021 186.957 -186.929c0 -103.269 -83.7021 -186.972 -186.957 -186.972c-103.24 0 -186.942 83.7031 -186.942 186.972c0 103.227 83.7021 186.929 186.942 186.929zM289.585 130.86v151.158l-75.5713 -75.5859z" />
    <glyph glyph-name="uniF118" unicode="&#xf118;" 
d="M320.101 77.7822l45.0576 45.0693l-67.5918 67.5918l67.5918 67.6045l-45.0576 45.0693l-67.6162 -67.5918l-67.5918 67.5918l-45.0576 -45.0693l67.5928 -67.6045l-67.5928 -67.5918l45.0576 -45.0693l67.5918 67.6045zM252.473 406.74
c119.211 0 216.321 -97.0977 216.321 -216.297c0 -119.188 -97.1221 -216.297 -216.321 -216.297c-119.176 0 -216.285 97.1094 -216.285 216.297s97.1094 216.297 216.285 216.297z" />
    <glyph glyph-name="uniF105" unicode="&#xf105;" 
d="M261.461 92.8965v85.4404h42.7197v-85.4404h-42.7197zM318.421 92.8965v199.36h42.7207v-199.36h-42.7207zM204.501 92.8965v142.4h42.7197v-142.4h-42.7197zM90.5811 64.416v14.2402h327.521v-14.2402h-327.521zM375.381 92.8965v213.601h42.7207v-213.601h-42.7207z
M147.541 92.8965v185.12h42.7197v-185.12h-42.7197zM90.5811 92.8965v99.6807h42.7197v-99.6807h-42.7197z" />
    <glyph glyph-name="uniF11B" unicode="&#xf11b;" 
d="M255.387 408.147l240.413 -240.437h-60.1035v-180.297h-360.618v180.297h-60.1035zM349.55 283.555c-12.9072 0 -23.3633 -10.4199 -23.3633 -23.291c0 -12.8721 10.4561 -23.292 23.3633 -23.292c12.8477 0 23.2549 10.4082 23.2549 23.292
c0 12.8828 -10.4316 23.291 -23.2549 23.291zM255.375 141.884c-7.91992 0 -14.3252 -6.39355 -14.3252 -14.2773c0 -7.89551 6.40527 -14.2773 14.3252 -14.2773c7.89648 0 14.3018 6.40527 14.3018 14.2773c0 7.89551 -6.40527 14.2773 -14.3018 14.2773zM161.248 283.495
c-12.8828 0 -23.3271 -10.4199 -23.3271 -23.292c0 -12.8711 10.4443 -23.291 23.3271 -23.291c12.8594 0 23.3281 10.4199 23.3281 23.291c0 12.8721 -10.4688 23.292 -23.3281 23.292zM184.312 100.626v0l15.1553 -0.0126953l-15.6963 96.3984l31.6562 -63.0361
c1.15332 -2.77539 4.37402 -4.10938 7.16309 -2.94434c2.77539 1.20215 4.08594 4.41113 2.9082 7.21094c0 0 -23.1836 62.6992 -28.9404 74.4053c-5.7207 11.6699 -11.3447 18.7842 -33.1221 18.7842h-4.44629c-21.7295 0 -27.4014 -7.10254 -33.1348 -18.7842
c-5.68457 -11.6816 -28.9033 -74.4053 -28.9033 -74.4053c-1.21387 -2.81152 0.0957031 -6.00879 2.84766 -7.21094c2.8125 -1.16504 6.00977 0.168945 7.22363 2.94434l31.6436 63.0361l-15.7676 -96.3984h15.2031l4.71094 -85.9902
c0 -2.99219 2.47559 -5.45605 5.45605 -5.45605c3.07715 0 5.5166 2.46387 5.5166 5.45605l4.69922 85.9902h5.2041l5.04688 -85.9902c0 -2.99219 2.44043 -5.45605 5.44434 -5.45605c3.0293 0 5.49219 2.46387 5.49219 5.45605zM299.914 124.205
c0.625 0.949219 1.75488 2.66797 1.99512 3.77344c0.361328 1.99512 -0.913086 3.87012 -2.88379 4.25488c-1.49023 0.228516 -2.76465 -0.52832 -3.71387 -1.5625c-0.960938 -1.0459 -15.5635 -20.4912 -26.4883 -22.3301
c-2.45117 0.384766 -5.11914 1.64648 -12.0898 1.64648h-2.75195c-6.93457 0 -9.5791 -1.28516 -12.0664 -1.64648c-10.9492 1.83887 -25.5273 21.2842 -26.5361 22.3301c-0.9375 1.03418 -2.16406 1.81445 -3.66602 1.5625
c-1.95898 -0.396484 -3.25684 -2.24707 -2.87207 -4.25488c0.21582 -1.08105 1.37012 -2.82422 1.99512 -3.77344c0.648438 -0.985352 13.3281 -20.623 20.7549 -25.0938c7.31934 -4.375 7.47559 -2.43945 8.18457 -8.85742l0.805664 -18.8203l-2.62012 -54.9834
c-0.144531 -0.457031 0 -3.08887 0.107422 -3.20898c0.769531 -2.31934 2.88477 -4.0625 5.46875 -4.0625c2.46387 0 4.56738 1.55078 5.39648 3.77441c0 0.0234375 6.45312 44.7432 6.45312 44.7432s6.44238 -44.7197 6.44238 -44.7432
c0.888672 -2.2002 2.91992 -3.77441 5.44434 -3.77441c2.55957 0 4.71094 1.74316 5.49219 4.0625c0.0361328 0.120117 0.192383 2.77637 0.0361328 3.20898l-2.65625 54.9834l0.853516 18.8203c0.732422 6.41797 0.888672 4.48242 8.16016 8.85742
c7.4873 4.4707 20.1182 24.1084 20.7549 25.0938zM410.891 131.14c2.8125 1.18945 4.11035 4.35059 2.89648 7.18652c0 0 -20.0459 62.7236 -25.7549 74.3936c-5.74512 11.6689 -14.5664 18.7725 -36.3193 18.7725h-4.45898c-21.7285 0 -30.5742 -7.0791 -36.3184 -18.7725
c-5.70898 -11.6582 -25.7432 -74.3936 -25.7432 -74.3936c-1.17773 -2.83594 0.120117 -5.98438 2.89648 -7.18652c2.8125 -1.22559 6.02051 0.144531 7.13867 2.89648l28.5068 63.0352l1.5625 -50.6807l-4.49512 -127.417
c-0.299805 -5.02344 3.47363 -9.44629 8.46094 -9.77051c0.289062 -0.0361328 0.493164 -0.0361328 0.697266 -0.0361328c4.77148 0 8.82129 3.70117 9.18164 8.52051l10.3125 104.919l10.4678 -104.919c0.263672 -4.81934 4.32617 -8.52051 9.07324 -8.52051
c0.240234 0 0.420898 0 0.672852 0.0361328c5.08398 0.324219 8.80957 4.72266 8.48535 9.77051l-4.50684 127.417h0.0595703l1.53906 50.6807l28.4707 -63.0352c1.16602 -2.75195 4.42285 -4.12207 7.1748 -2.89648z" />
    <glyph glyph-name="uniF109" unicode="&#xf109;" 
d="M266.445 216.984v97.2451h97.2305v-97.2451h-97.2305zM144.893 216.984v97.2451h97.2588v-97.2451h-97.2588zM266.445 93.708v97.2451h97.2305v-97.2451h-97.2305zM144.893 93.708v97.2451h97.2588v-97.2451h-97.2588zM71.7266 386.555h365.144v-365.157h-365.144
v365.157zM428.411 29.8555v348.24h-348.226v-348.24h348.226z" />
    <glyph glyph-name="uniF134" unicode="&#xf134;" 
d="M255.939 181.664v0c-50.4277 0 -91.29 47.833 -91.2783 106.83c0 81.8203 40.8623 106.842 91.2783 106.842c50.417 0 91.2783 -25.0098 91.2783 -106.842c0 -59.0098 -40.8613 -106.83 -91.2783 -106.83zM255.939 181.664zM457.497 24.418v0
c3.17285 -7.15039 2.52441 -15.335 -1.71875 -21.8848c-4.26562 -6.57422 -11.4766 -10.4805 -19.3008 -10.4805h-361.051c-7.8125 0 -15.0352 3.90625 -19.29 10.4805c-4.26562 6.5498 -4.92676 14.7344 -1.74219 21.8848l46.0537 103.741
c2.11523 4.74707 5.79297 8.68945 10.4082 11.0693l71.46 37.208c1.57422 0.84082 3.48535 0.672852 4.90332 -0.40918c20.2021 -15.2871 43.9746 -23.3506 68.7324 -23.3506c24.7451 0 48.5176 8.06348 68.7197 23.3506c1.43066 1.08203 3.3291 1.23828 4.8916 0.40918
l71.4844 -37.208c4.60254 -2.37988 8.28027 -6.32227 10.4082 -11.0693zM457.497 24.418z" />
    <glyph glyph-name="uniF11C" unicode="&#xf11c;" 
d="M286.112 207.209l-24.542 -67.1826c-2.11523 -5.15625 -5.8291 -13.8701 -5.8291 -19.3623c0 -2.42773 1.4668 -4.85547 4.21875 -4.85547c10.168 0 28.9043 29.3975 33.748 29.3975c1.77832 0 4.03809 -2.10352 4.03809 -5.17969
c0 -10 -39.8896 -52.8096 -74.4541 -52.8096c-12.2715 0 -20.8164 5.81641 -20.8164 18.8926c0 16.6465 11.6104 44.9014 14.0254 50.7061l23.917 60.7295c2.42773 6.29785 -0.649414 9.375 -3.38867 9.375c-12.5957 0 -29.0615 -30.0469 -35.2148 -30.0469
c-2.41602 0 -4.50684 2.42773 -4.50684 4.51953c0 6.1416 15.167 20.6836 19.542 25.1904c13.7256 13.0889 31.501 23.0879 51.1992 23.0879c14.6621 0.0234375 30.4902 -9.01367 18.0635 -42.4619zM282.074 262.134c-14.0498 0 -23.2676 9.21875 -23.2676 23.4238
c0 15.1914 13.0762 27.6191 28.0986 27.6191c13.5576 0 23.5811 -9.3623 23.5811 -23.5811c0.0117188 -15.8281 -13.0762 -27.4619 -28.4121 -27.4619zM262.052 355.146c-85.4277 0 -155.027 -69.5996 -155.027 -155.027c0 -85.4268 69.5996 -155.026 155.027 -155.026
c85.4268 0 155.026 69.5996 155.026 155.026c0 85.4277 -69.5996 155.027 -155.026 155.027zM262.052 6.32031c-106.917 0 -193.799 86.8818 -193.799 193.798c0 106.917 86.8818 193.799 193.799 193.799c106.748 0 193.798 -86.8818 193.798 -193.799
c0 -106.916 -87.0498 -193.798 -193.798 -193.798z" />
    <glyph glyph-name="uniF10A" unicode="&#xf10a;" 
d="M70.3604 294.321v103.781h372.105v-103.781h-372.105zM70.3604 158.272v106.316h106.315v-106.316h-106.315zM336.15 158.272v106.316h106.315v-106.316h-106.315zM203.248 158.272v106.316h106.315v-106.316h-106.315zM70.3604 23.4619v106.316h106.315v-106.316
h-106.315zM336.15 23.4619v106.316h106.315v-106.316h-106.315zM203.248 23.4619v106.316h106.315v-106.316h-106.315z" />
    <glyph glyph-name="uniF13C" unicode="&#xf13c;" 
d="M267.326 233.965v0.397461c-0.0712891 -0.138672 -0.176758 -0.282227 -0.272461 -0.397461h0.272461zM255.856 411.299c105.702 0 191.401 -85.7002 191.401 -191.402c0 -105.726 -85.6992 -191.401 -191.401 -191.401c-105.711 0 -191.402 85.6758 -191.402 191.401
c0 105.702 85.6914 191.402 191.402 191.402zM203.613 128.426v123.411h-41.041v-123.411h41.041zM183.086 268.704c14.3115 0 23.2119 9.48926 23.2168 21.332c-0.258789 12.1016 -8.90039 21.332 -22.9443 21.332c-14.0205 0 -23.2031 -9.23047 -23.2031 -21.332
c0 -11.8477 8.90039 -21.332 22.6621 -21.332h0.268555zM351.558 128.426v70.7754c0 37.917 -20.2549 55.5352 -47.2432 55.5352c-21.7715 0 -31.5137 -11.9385 -36.9834 -20.374v17.4746h-41.0176c0.526367 -11.5654 0 -123.411 0 -123.411h41.0176v68.9238
c0 3.71777 0.267578 7.35938 1.35449 10.001c2.9668 7.35938 9.72754 15.0244 21.0488 15.0244c14.8623 0 20.7959 -11.3301 20.7959 -27.9199v-66.0293h41.0273z" />
    <glyph glyph-name="uniF12F" unicode="&#xf12f;" 
d="M376.735 343.646c4.73438 -0.0234375 9.18164 -1.8623 12.5225 -5.19141c3.34082 -3.35352 5.19238 -7.78809 5.17969 -12.5352l0.0126953 -188.373c0.0117188 -4.74805 -1.86328 -9.18262 -5.2041 -12.5117l-62.1104 -62.1094
c-5.05957 -5.07227 -12.6553 -6.59863 -19.2891 -3.87012c-6.63379 2.76367 -10.9365 9.19336 -10.9365 16.3809v100.508l-110.531 -110.531c-3.29297 -3.31738 -7.84863 -5.19141 -12.5234 -5.19141c-4.66309 -0.0244141 -9.24219 1.88672 -12.5225 5.16699
l-45.5859 45.6094c-3.30469 3.28125 -5.19141 7.83594 -5.19141 12.5107c-0.0117188 4.67578 1.89844 9.23047 5.19141 12.5479l110.015 110.038l-99.7266 -0.0234375c-7.1748 0.0234375 -13.6289 4.37402 -16.3691 10.9844s-1.21387 14.2178 3.8584 19.2891
l62.3506 62.1104c3.28027 3.31738 7.83496 5.16797 12.4863 5.16797z" />
    <glyph glyph-name="uniF131" unicode="&#xf131;" 
d="M265.65 -14.6895c-2.16309 -2.13867 -5.01172 -3.31641 -8.05176 -3.30469c-3.02832 0 -5.88867 1.16602 -8.02832 3.31641l-85.498 85.4863c-2.15039 2.15137 -3.3291 5.01172 -3.3291 8.04004v56.3652c0 4.61523 2.75293 8.74902 7.00684 10.5039
c4.2666 1.7666 9.14648 0.805664 12.4033 -2.45215l45.6084 -45.6211v85.9551c-0.191406 0.84082 -0.324219 1.69434 -0.324219 2.57129l-0.0117188 99.8477l-45.2607 -45.2607c-3.24512 -3.24512 -8.16016 -4.20605 -12.3906 -2.45117
c-4.24219 1.75391 -7.01855 5.90039 -7.01855 10.5156l0.108398 56.4609c0 3.00488 1.22559 5.90137 3.32812 8.0166l85.4863 85.498c2.15137 2.15039 4.99902 3.3291 8.04004 3.3291c3.0166 0 5.88867 -1.17871 8.02832 -3.3291l85.4854 -85.4863
c2.15137 -2.15137 3.3291 -5.02344 3.3291 -8.04004v-56.377c0 -4.59082 -2.76465 -8.7373 -7.01855 -10.4922c-4.24219 -1.75488 -9.13379 -0.792969 -12.3906 2.46387l-45.6094 45.6094v-85.9424c0.179688 -0.841797 0.324219 -1.70703 0.324219 -2.57227
l0.0117188 -99.8711l45.2734 45.2725c3.23242 3.24512 8.13574 4.20605 12.3906 2.45215c4.25391 -1.75488 7.01855 -5.91309 7.01855 -10.5166l-0.120117 -56.4736c0 -3.00391 -1.21387 -5.90039 -3.30566 -8.01562z" />
    <glyph glyph-name="uniF130" unicode="&#xf130;" 
d="M123.295 335.918l188.373 -0.0234375c4.65137 0 9.20605 -1.85156 12.4873 -5.16797l62.3506 -62.1104c5.07129 -5.07129 6.59766 -12.6797 3.85742 -19.2891c-2.74023 -6.61035 -9.19336 -10.9609 -16.3682 -10.9854l-99.7275 0.0244141l110.015 -110.039
c3.29297 -3.30469 5.2041 -7.85938 5.19238 -12.5342c0 -4.67578 -1.88672 -9.23047 -5.19238 -12.5117l-45.585 -45.6084c-3.28125 -3.28125 -7.85938 -5.19238 -12.5225 -5.16797c-4.67578 0 -9.23047 1.875 -12.5234 5.19141l-110.531 110.531v-100.508
c0 -7.18652 -4.30273 -13.6162 -10.9365 -16.3809c-6.63477 -2.72852 -14.2295 -1.20215 -19.2891 3.87012l-62.1104 62.1094c-3.3418 3.3291 -5.21582 7.76465 -5.2041 12.5117l0.0117188 188.373c-0.0117188 4.74707 1.83887 9.18164 5.17969 12.5352
c3.3418 3.3291 7.78809 5.15625 12.5234 5.17969z" />
    <glyph glyph-name="uniF117" unicode="&#xf117;" 
d="M369.966 4.36133l-114.488 114.464l-114.465 -114.464l-76.3291 76.3174l114.477 114.464l-114.477 114.477l76.3291 76.3174l114.465 -114.477l114.488 114.477l76.3174 -76.3174l-114.477 -114.477l114.477 -114.464z" />
    <glyph glyph-name="uniF125" unicode="&#xf125;" 
d="M409.494 138.884c0 -17.1621 -166.54 -144.486 -166.54 -144.486s-158.056 127.336 -158.056 144.486v217.463c0 17.1504 13.918 31.0557 31.0684 31.0557h262.472c17.1621 0 31.0557 -13.9053 31.0557 -31.0557v-217.463z" />
    <glyph glyph-name="uniF111" unicode="&#xf111;" 
d="M53.3145 412.51l410.371 -221.514l-410.371 -237.196v458.71z" />
    <glyph glyph-name="uniF112" unicode="&#xf112;" 
d="M350.748 69.9219v-107.661l-222.09 222.09l222.09 222.09v-107.674l-114.416 -114.416z" />
    <glyph glyph-name="uniF113" unicode="&#xf113;" 
d="M422.222 233.098l66.6191 2.19922l-222.09 -222.078l-222.103 222.078l68.7822 -4.375l153.32 -153.284zM425.227 338.259l66.6182 2.2002l-222.09 -222.078l-222.102 222.078l68.7822 -4.375l153.319 -153.296z" />
    <glyph glyph-name="uniF10C" unicode="&#xf10c;" 
d="M264.695 417.558c125.089 0 226.477 -101.412 226.477 -226.489c0 -125.088 -101.388 -226.477 -226.477 -226.477c-125.076 0 -226.488 101.376 -226.488 226.477c0 125.077 101.412 226.489 226.488 226.489zM215.059 74.4414
c38.7002 0 70.1768 30.3701 70.1768 67.6758c0 37.3418 -23.6162 67.6885 -52.6289 67.6885h-35.0947c-9.71094 0 -17.5586 -8.07715 -17.5586 -18.0518c0 -9.95117 7.84766 -18.0518 17.5586 -18.0518h35.0947c8.09961 0 17.5342 -13.7734 17.5342 -31.585
c0 -17.4023 -15.7559 -31.585 -35.0938 -31.585h-17.5352c-19.3379 0 -35.0938 16.2012 -35.0938 36.1162v130.593c0 9.96289 -7.86035 18.04 -17.5469 18.04c-9.69922 0 -17.5469 -8.07715 -17.5469 -18.04v-130.593c0 -39.8057 31.4766 -72.207 70.2002 -72.207h17.5342z
M349.378 170.289c0.516602 2.69141 0.541016 5.49219 0.84082 8.66504c-0.732422 5.02344 -1.20117 10.4795 -2.35547 15.7559c-5.14355 23.5684 -18.0273 42.041 -37.4619 56.0547c-14.2412 10.2881 -30.2266 16.4531 -47.4365 19.5781
c-5.66113 1.02148 -11.3213 2.06738 -17.1387 1.63477c-7.86035 -0.577148 -13.5088 -4.83203 -15.3711 -11.9834c-0.613281 -2.35547 -0.925781 -4.84277 -0.9375 -7.25879c-0.0722656 -7.63184 3.43652 -12.7031 10.3594 -15.2148
c1.79102 -0.637695 3.67773 -1.12988 5.55273 -1.38281c5.10742 -0.720703 10.3242 -0.913086 15.3594 -1.9707c24.085 -5 40.2266 -19.1338 47.9785 -42.6299c2.09082 -6.30957 2.75195 -12.8594 3.46094 -19.4336c0.853516 -7.88477 5.60059 -13.124 13.0645 -14.5781
c4.12207 -0.805664 8.28027 -0.661133 12.3672 0.444336c6.42969 1.70605 10.4561 5.76855 11.7178 12.3193zM411.982 171.791c0.492188 5.86523 0.21582 11.8262 -0.264648 17.751c-1.37012 17.2109 -6.12988 33.5684 -13.5449 49.1562
c-25.6953 53.915 -81.8584 91.46 -143.465 92.5059c-4.03809 -0.228516 -8.10059 -0.192383 -12.0908 -0.733398c-5.84082 -0.804688 -10.0713 -3.92969 -11.9102 -9.74609c-1.15332 -3.66602 -1.30957 -7.43945 -0.853516 -11.2256
c0.853516 -6.9707 4.7959 -11.3213 11.5137 -12.8604c3.93066 -0.901367 7.99219 -1.17773 12.0068 -1.62207c7.18652 -0.817383 14.4941 -1.0459 21.5732 -2.41602c47.4492 -9.18164 85.0547 -45.6104 96.1602 -92.7949c2.06738 -8.7373 2.95605 -17.6309 3.52148 -26.5723
c0.516602 -8.49707 5.33594 -14.2305 13.4004 -15.6123c3.14844 -0.541016 6.50195 -0.46875 9.69922 -0.120117c8.25586 0.9375 13.5684 6.04492 14.2539 14.29z" />
    <glyph glyph-name="uniF133" unicode="&#xf133;" 
d="M341.726 383.029v0c66.4854 0 120.327 -53.7695 120.327 -120.338c0 -66.4854 -53.8418 -120.314 -120.327 -120.314c-15.5508 0 -29.7207 2.83594 -42.4961 7.11426l-63.6484 -63.7207h-42.5088v-42.4355h-42.4355v-42.4971h-70.7754v70.7754l148.581 148.653
c-4.20605 14.1816 -7.04297 28.2666 -7.04297 42.4365c0 66.5566 53.7695 120.326 120.326 120.326zM377.107 255.66v0c24.0488 0 42.4365 18.376 42.4365 42.4248c0 24.0723 -18.3877 42.5322 -42.4365 42.5322s-42.5078 -18.4717 -42.5078 -42.5322
c0 -24.0488 18.46 -42.4248 42.5078 -42.4248zM377.107 255.66z" />
    <glyph glyph-name="uniF137" unicode="&#xf137;" 
d="M352.82 -45.6455v0l-0.0107422 0.0742188h-15.3271c-5.00391 33.1143 -12.3105 68.9199 -22.2656 106.239c-13.2461 -6.62305 -42.1025 -6.45508 -83.3955 72.7666c-12.0264 11.7852 -29.1611 26.9014 -51.2275 42.3662
c23.7061 -14.2344 42.3447 -28.5312 55.4014 -39.6533c14.4756 -6.25488 47.916 -21.835 69.0459 -40.2109c-4.02637 13.0146 -8.31543 26.1348 -13.0459 39.4014c-11.2803 -6.5918 -37.6875 -9.07227 -76.8994 63.9785c-10.9639 10.4814 -26.5547 23.9053 -46.5596 37.5723
c21.4766 -12.5527 38.3701 -25.2197 50.25 -35.0801c12.5518 -5.23535 40.9248 -17.9873 60.2051 -33.4297c-0.0419922 0.367188 -0.0634766 0.756836 -0.0947266 1.12402c-4.0791 10.0605 -8.38965 20.1523 -12.9199 30.2656
c-9.78711 -6.25488 -33.1465 -9.53418 -70.4551 54.1924c-10.0918 8.94531 -24.3262 20.3623 -42.6387 31.916c19.5215 -10.4922 34.8916 -21.1621 45.7607 -29.541c10.9648 -4.08887 35.6162 -14.0439 53.2148 -26.6484c-5.48828 11.0801 -11.249 22.1494 -17.3564 33.1768
c-7.27441 -5.72852 -28.5938 -13.4873 -62.0127 48.0527c-8.5791 8.11621 -20.71 18.5127 -36.3945 29.0986c16.7676 -9.71289 29.9082 -19.458 39.1904 -27.0801c9.07227 -3.74219 28.8984 -12.541 43.7842 -23.3906c-5.79199 9.61914 -11.8477 19.1855 -18.1758 28.6895
c-4.81445 -5.10938 -22.6436 -16.7363 -56.5889 36.4355c-7.82129 6.43359 -18.8594 14.6758 -32.998 22.8545c14.9062 -7.2959 26.7324 -14.875 35.1113 -20.8359c8.34668 -2.77539 27.1748 -9.57715 40.7256 -18.5547c-9.33496 13.1299 -19.0068 26.1553 -29.3936 38.9385
l6.82324 -4.60449c8.47266 -9.61914 16.4941 -19.4688 24.2627 -29.4033c-1.95508 17.4082 7.83203 44.8359 11.8896 55.1797c0.767578 10.2607 2.49121 24.1787 6.41211 40.2949c-2.76465 -16.1055 -3.49023 -29.8457 -3.53223 -39.9795
c17.7451 -55.5059 1.75586 -65.1143 -6.34961 -66.5752c9.15723 -12.1738 17.9658 -24.4941 26.1768 -37.0146c-0.262695 20.415 12.8984 50.4072 18.3545 61.9082c1.72363 11.8682 4.87793 27.9844 10.7227 46.4023c-4.47852 -18.4395 -6.47559 -34.4082 -7.32715 -46.1816
c15.958 -65.2617 -2.76465 -75.7324 -12.415 -76.9932c7.55859 -12.1211 14.8438 -24.3154 21.6348 -36.6465c1.13477 22.8857 13.2666 53.1299 18.6172 65.4297c1.56641 13.6348 4.58398 32.1885 10.5967 53.498c-4.41504 -21.0781 -6.11816 -39.2852 -6.69629 -52.7412
c20.4785 -72.999 0.388672 -86.4443 -10.7754 -88.6104c5.06738 -9.92383 9.89258 -19.8896 14.4863 -29.8447c4.65723 23.4639 16.3574 49.6924 21.9287 61.3506c2.3125 15.2539 6.47559 35.9951 14.1396 59.7012c-5.84473 -23.5166 -8.51562 -43.9219 -9.69238 -59.0381
c17.6182 -73.0938 1.72363 -92.8252 -10.9648 -97.8291c3.69043 -9.04102 7.19043 -18.124 10.4912 -27.1328c5.36133 26.3018 19.0596 55.9678 25.4824 69.0039c2.74414 16.9033 7.65332 39.9053 16.4629 66.1025c-6.8125 -26.0713 -10.0293 -48.6836 -11.5635 -65.4824
c20.0254 -87.8213 -2.4082 -106.219 -16.7256 -109.53c14.9277 -46.9902 25.4922 -92.4775 32.6309 -133.981zM233.072 90.3232c34.9229 -55.4854 21.2773 -71.4111 12.6357 -75.7529c22.0762 -28.2256 34.4072 -52.1309 38.1289 -59.7949h-17.8496
c-4.5 9.33496 -11.6377 22.5703 -21.3408 37.5928c-9.8291 -4.15234 -29.0879 -1.73438 -65.2295 32.084c-10.5547 4.95117 -25.1357 10.9014 -43.1436 15.9365c18.7012 -3.85742 34.0186 -8.91406 45.0674 -13.1406c8.71484 -0.620117 26.9111 -2.32324 43.1426 -6.72754
c-6.50684 8.23145 -13.6553 16.5889 -21.624 24.9775c-7.0752 -6.36035 -24.1895 -9.56641 -64.7041 15.5479c-10.1553 2.52344 -24.1475 5.23535 -41.0098 6.5498c17.1885 -0.126953 31.6221 -1.91406 42.1133 -3.72168c8.4834 1.08301 27.2061 2.96484 43.3008 1.26172
c-6.03418 5.39258 -12.3623 10.6699 -19.1113 15.7891c-4.23633 -7.12695 -17.7559 -14.9062 -60.1846 4.03711c-9.29297 0.988281 -21.9395 1.70312 -36.9512 0.830078c15.1484 1.96582 28.0791 2.12402 37.5303 1.79785c7.88379 2.11328 25.9863 6.47559 41.04 6.37109
c-7.43164 4.8457 -15.1797 9.49219 -23.3584 13.8232c-2.5127 -6.73828 -12.8984 -15.7686 -52.9834 -3.0166c-8.14648 -0.0107422 -19.2373 -0.630859 -32.1992 -2.85938c12.9727 3.1748 24.1992 4.5625 32.4521 5.21387c6.53809 2.55469 21.4346 7.91602 34.3545 9.42969
c-10.1973 4.48926 -20.8779 8.57812 -32.1367 12.0684c-0.87207 -4.18359 -6.11816 -11.29 -32.7568 -4.37305c-5.01465 -0.304688 -11.7949 -1.04102 -19.6895 -2.84863c7.90527 2.37598 14.7803 3.63672 19.8262 4.28906c3.6377 1.65039 11.6162 5.07715 19.0693 6.6123
c-11.7422 3.05859 -23.8311 5.70801 -36.7197 7.41113c13.4453 -0.977539 26.2598 -2.88086 38.5908 -5.37207c-6.97949 5.12012 -13.1191 19.3848 -15.2529 24.7891c-3.16406 3.9834 -7.24316 9.62891 -11.2695 16.8301
c4.44629 -6.75977 8.82031 -11.9951 12.2256 -15.7158c27.0596 -15.2334 22.0664 -24.3896 19.6484 -26.9756c0.34668 -0.0839844 0.682617 -0.147461 0.998047 -0.220703c1.50391 -0.115234 2.85938 -0.399414 3.98438 -0.946289
c10.4395 -2.52246 20.4053 -5.55078 30.0029 -8.97754c-9.00879 10.6699 -16.0312 29.8555 -18.6387 37.6562c-4.8252 6.76953 -10.9229 16.2627 -16.8203 28.2568c6.58105 -11.3633 13.2148 -20.2051 18.3975 -26.5117c39.6953 -25.251 34.6484 -39.4639 30.4121 -44.5
c8.83105 -3.66895 17.251 -7.69531 25.3564 -11.9629c-7.41113 13.4453 -12.0684 32.6729 -13.8447 40.9463c-4.61523 8.27344 -10.3555 19.8574 -15.4961 34.2285c6.02441 -13.7822 12.458 -24.7041 17.5566 -32.5049c38.7803 -31.2539 35.1318 -46.833 30.002 -53.0771
c8.09473 -5.05664 15.7373 -10.3545 23.002 -15.832c-5.04688 15.5273 -7.0127 34.6602 -7.66406 43.3428c-3.86816 9.92383 -8.49414 23.6748 -12.0684 40.4941c4.65723 -16.2314 10.124 -29.3613 14.6338 -38.8223c36.2363 -38.3184 32.7246 -55.5801 26.6064 -62.623
c10.7227 -9.54492 20.373 -19.3223 28.9307 -28.9092c-3.78418 19.0693 -1.39844 44.8457 -0.0634766 55.7266c-2.08105 11.627 -4.16211 27.7217 -4.41504 46.7705c1.56641 -18.6074 4.66797 -34.1875 7.5166 -45.4775z" />
    <glyph glyph-name="uniF10B" unicode="&#xf10b;" 
d="M264.684 417.558c125.088 0 226.488 -101.412 226.488 -226.489c0 -125.076 -101.412 -226.477 -226.488 -226.477c-125.077 0 -226.477 101.4 -226.477 226.477c0 125.077 101.399 226.489 226.477 226.489zM314.704 219.648h-50.2969v36.2119
c0 9.12207 14.4697 12.3789 23.5801 12.3789c9.08594 0 25.1787 -2.82422 25.1787 -2.82422l5.50488 34.6855s-13.04 4.23047 -42.6064 4.23047c-18.1113 0 -29.9375 -6.91113 -37.6172 -17.0547c-7.2832 -9.57812 -10.0957 -25.0586 -10.0957 -35.0938v-32.5342h-12.0186
v-36.0557h12.0186v-132.203h36.0557v132.203h47.6768z" />
    <glyph glyph-name="uniF13B" unicode="&#xf13b;" 
d="M255.724 430.874c130.994 0 237.515 -106.583 237.526 -237.527c0 -130.982 -106.545 -237.553 -237.539 -237.553c-131.021 0 -237.565 106.558 -237.565 237.553c0 130.97 106.558 237.527 237.578 237.527zM255.724 -10.1426
c112.194 0 203.45 91.2686 203.476 203.489c0 112.183 -91.2812 203.464 -203.476 203.464c-112.221 0 -203.502 -91.2812 -203.502 -203.464c0 -112.208 91.2812 -203.489 203.502 -203.489zM255.724 347.583c85.0391 0 154.224 -69.1846 154.249 -154.236
c0 -85.0781 -69.1846 -154.262 -154.249 -154.262c-85.0908 0 -154.275 69.1836 -154.275 154.262c0 85.0518 69.1846 154.236 154.275 154.236zM255.724 69.7256c68.1523 0 123.596 55.4688 123.57 123.583c0 68.1279 -55.418 123.57 -123.57 123.57
c-68.1777 0 -123.621 -55.4424 -123.621 -123.57c0 -68.165 55.4434 -123.583 123.621 -123.583zM191.673 193.334c0 42.6836 21.3418 64.0254 64.0254 64.0254s64.0254 -21.3418 64.0254 -64.0254s-21.3418 -64.0254 -64.0254 -64.0254s-64.0254 21.3418 -64.0254 64.0254z
" />
    <glyph glyph-name="uniF13A" unicode="&#xf13a;" 
d="M378.954 223.574h110.622v-110.575v-18.4404v-110.563h-110.61h-184.292h-110.587v110.563v18.4404v110.575h110.575h184.292zM460.092 65.0391v0v77.3867l-12.043 12.0654c-1.52051 -0.27832 -2.92578 -0.905273 -4.54004 -0.905273
c-13.2148 0 -23.9453 10.6836 -23.9453 23.875c0 1.6377 0.638672 3.08887 0.928711 4.59863l-12.042 12.0303h-243.249l-12.0537 -12.0537c0.301758 -1.50977 0.905273 -2.9375 0.905273 -4.58691c0 -13.1797 -10.707 -23.9102 -23.9102 -23.9102
c-1.6377 0 -3.04297 0.638672 -4.56348 0.928711l-12.043 -11.9951v-77.4102l12.0654 -12.042c1.52148 0.27832 2.90332 0.905273 4.54102 0.905273c13.2148 0 23.9336 -10.6836 23.9336 -23.9219c0 -1.61426 -0.603516 -3.04199 -0.90625 -4.59863l12.0078 -11.9844
h243.284l12.0195 11.9844c-0.291016 1.59082 -0.929688 2.98438 -0.929688 4.59863c0 13.2383 10.707 23.9453 23.9336 23.9453c1.61426 0 3.04297 -0.615234 4.56445 -0.928711zM382.717 103.756c0 15.9401 7.97006 23.9102 23.9102 23.9102
s23.9102 -7.97005 23.9102 -23.9102s-7.97006 -23.9102 -23.9102 -23.9102s-23.9102 7.97005 -23.9102 23.9102zM214.485 103.768c0 41.9525 24.1152 62.9287 72.3457 62.9287c48.2311 0 72.3467 -20.9762 72.3467 -62.9287c0 -41.9525 -24.1156 -62.9287 -72.3467 -62.9287
c-48.2305 0 -72.3457 20.9762 -72.3457 62.9287zM143.114 103.756c0 15.9401 7.97005 23.9102 23.9102 23.9102s23.9102 -7.97005 23.9102 -23.9102s-7.97005 -23.9102 -23.9102 -23.9102s-23.9102 7.97005 -23.9102 23.9102zM343.548 311.296
c11.5771 6.31738 26.1279 2.11426 32.457 -9.47559c6.3291 -11.5889 2.08984 -26.1279 -9.45312 -32.4336c-11.5889 -6.39844 -26.1279 -2.16016 -32.5029 9.45215c-6.3291 11.5664 -2.11426 26.0938 9.49902 32.457zM99.1953 251.189h-15.1084
c-15.2471 0 -27.6377 -12.3906 -27.6377 -27.626v-59.5146l-41.8408 76.4219l96.9658 53.1045l161.647 88.5576h-0.0234375l97.0117 53.0938l53.1162 -96.9775v0l47.6582 -87.0596h-70.582c1.89355 5.37695 5.49316 10.1963 10.8701 13.1572
c1.42773 0.766602 2.99609 0.928711 4.42383 1.37012l4.78516 16.3389l-37.1729 67.8408l-16.3271 4.80762c-1.18457 -1.0332 -2.13672 -2.22949 -3.54199 -2.98438c-11.5889 -6.36328 -26.1279 -2.14844 -32.4805 9.46484
c-0.765625 1.42773 -0.952148 2.97266 -1.4043 4.45898l-16.3047 4.74902l-213.382 -116.846zM219.723 287.955c35.0693 19.1953 76.9912 10.0332 93.7021 -20.4502c2.85645 -5.16699 4.4707 -10.7061 5.51562 -16.3154h-133.324
c6.51465 14.7012 18.0576 27.9746 34.1064 36.7656z" />
    <glyph glyph-name="uniF135" unicode="&#xf135;" 
d="M264.689 417.558c125.085 0 226.471 -101.422 226.483 -226.483c0 -125.098 -101.398 -226.507 -226.483 -226.507c-125.074 0 -226.483 101.422 -226.483 226.507c0 125.074 101.422 226.483 226.483 226.483zM171.151 257.872
c-0.444336 0 -0.697266 -0.168945 -1.16602 -0.25293l94.6914 -84.3672l95.4014 84.2715c-0.613281 0.0957031 -1.23828 0.348633 -1.86328 0.348633h-187.063zM157.799 137.617c0 -1.94629 0.445312 -3.72559 1.2627 -5.4082l67.0615 57.5312l-67.2539 59.9473
c-0.72168 -1.59863 -1.07031 -3.29297 -1.07031 -5.16797v-106.902zM171.151 124.266v0.0234375h186.427l-64.3936 56.3779l-28.4951 -25.2148l-28.5195 25.2988l-65.7275 -56.3174c0.264648 -0.0722656 0.457031 -0.167969 0.708984 -0.167969zM371.579 137.617h0.0117188
v106.891c0 1.59863 -0.348633 3.02832 -0.888672 4.45898l-67.3506 -59.4062l66.4492 -58.168c1.05762 1.8623 1.77832 3.92969 1.77832 6.22461z" />
    <glyph glyph-name="uniF103" unicode="&#xf103;" 
d="M257.203 19.4746c-103.24 0 -186.942 83.7031 -186.957 186.929c0 103.27 83.7031 186.972 186.957 186.972c103.24 0 186.943 -83.7021 186.943 -186.972c0 -103.226 -83.7031 -186.929 -186.943 -186.929zM224.821 282.004v-151.157l75.5723 75.5859z" />
    <glyph glyph-name="uniF129" unicode="&#xf129;" 
d="M246.698 -6c-111.192 0 -201.678 90.4609 -201.678 201.678c0 111.181 90.4854 201.665 201.678 201.665s201.689 -90.4844 201.689 -201.665c-0.0117188 -111.205 -90.4971 -201.678 -201.689 -201.678v0zM246.698 364.846
c-93.2734 0 -169.192 -75.9189 -169.192 -169.168c0 -93.2734 75.9189 -169.145 169.192 -169.145c93.2607 0 169.156 75.8594 169.156 169.145c-0.0126953 93.249 -75.8955 169.168 -169.156 169.168v0zM246.698 364.846zM200.224 240.073
c2.36719 6.15332 5.73242 11.4531 10.0107 15.9355c4.27832 4.49512 9.48242 7.99219 15.5273 10.5039c6.0459 2.54785 12.8359 3.78613 20.335 3.78613c9.65137 0 17.7148 -1.29785 24.1807 -3.99023c6.46582 -2.65625 11.6699 -5.93652 15.624 -9.90332
c3.96582 -3.96582 6.79004 -8.20801 8.49707 -12.7627c1.69434 -4.56738 2.53516 -8.83398 2.53516 -12.7637c0 -6.50195 -0.84082 -11.9102 -2.53516 -16.1162c-1.70703 -4.25488 -3.82227 -7.83594 -6.33398 -10.8164
c-2.53613 -3.00488 -5.2998 -5.54102 -8.37695 -7.66797c-3.04004 -2.11523 -5.93652 -4.20605 -8.66504 -6.30957c-2.72754 -2.13867 -5.16797 -4.51855 -7.25879 -7.24707c-2.11523 -2.72754 -3.46094 -6.12891 -3.99023 -10.2148v-7.75195h-27.5693v9.18164
c0.432617 5.84082 1.52637 10.7568 3.35254 14.6621c1.83887 3.96582 4.00195 7.31934 6.44238 10.1553c2.47559 2.75293 5.04688 5.19238 7.77539 7.23535c2.72852 2.05469 5.24023 4.07422 7.57129 6.06934c2.2959 2.09082 4.1709 4.31445 5.57715 6.76562
c1.4541 2.42773 2.09082 5.55273 1.94629 9.19434c0 6.28516 -1.52637 10.8887 -4.59082 13.8926c-3.04004 3.0166 -7.31934 4.49512 -12.7637 4.49512c-3.67676 0 -6.81348 -0.708984 -9.46973 -2.12695c-2.69238 -1.4541 -4.84375 -3.35352 -6.53809 -5.73242
c-1.74316 -2.4043 -2.98047 -5.2041 -3.78613 -8.37695c-0.817383 -3.2207 -1.2373 -6.6582 -1.2373 -10.3242h-30.0342c0.144531 7.35547 1.38281 14.0977 3.77441 20.2275v0zM261.396 152.472v-31.4268h-32.0645v31.4268h32.0645zM261.396 152.472z" />
    <glyph glyph-name="uniF136" unicode="&#xf136;" 
d="M238.241 -47.5723c-7.69238 -10.3643 -21.2715 -14.2217 -32.1797 -7.38184c-10.9521 6.86133 -14.2441 21.2832 -7.38281 32.2354c6.83984 10.8965 33.1553 20.5293 44.6729 26.5039c0 -24.7305 1.75195 -42.1562 -5.11035 -51.3574zM153.362 -11.2012
c-7.7041 -10.3428 -21.2832 -14.2002 -32.1904 -7.36133c-10.9521 6.8623 -14.2451 21.2842 -7.38281 32.2246c6.83887 10.9082 33.166 20.541 44.6621 26.5156c0 -24.7305 1.75098 -42.1562 -5.08887 -51.3789zM323.153 0.925781
c-7.6709 -10.3428 -21.2939 -14.2227 -32.1797 -7.36035c-10.9629 6.86133 -14.2559 21.2832 -7.37207 32.2354c6.8291 10.9189 33.1562 20.5293 44.6406 26.5039c0 -24.7305 1.75098 -42.1787 -5.08887 -51.3789zM85.6768 250.33
c-9.02344 13.1689 -13.8232 28.6221 -13.8232 44.6396c0 43.6533 35.5166 79.1592 79.1699 79.1592c28.5664 0 55.0156 -15.5088 69.0391 -40.4834l-27.6025 -15.4854c-8.4248 15.0088 -24.2871 24.3096 -41.4141 24.3096c-26.1943 0 -47.5 -21.2949 -47.5 -47.4893
c0 -9.59961 2.86035 -18.8555 8.26953 -26.7373zM151.023 369.938c-5.25391 0 -9.5 4.25684 -9.5 9.48926v42.2119c0 5.24316 4.25684 9.48926 9.5 9.48926s9.48926 -4.25684 9.48926 -9.48926v-42.2119c0.0107422 -5.23242 -4.24512 -9.48926 -9.48926 -9.48926z
M151.023 369.938c-5.25391 0 -9.5 4.25684 -9.5 9.48926v42.2119c0 5.24316 4.25684 9.48926 9.5 9.48926s9.48926 -4.25684 9.48926 -9.48926v-42.2119c0.0107422 -5.23242 -4.24512 -9.48926 -9.48926 -9.48926zM66.5879 285.503h-42.2002
c-5.25488 0 -9.5 4.25684 -9.5 9.5s4.25586 9.48926 9.5 9.48926h42.2002c5.24414 0 9.48926 -4.25684 9.48926 -9.48926c0.0107422 -5.24316 -4.24512 -9.5 -9.48926 -9.5zM66.5879 285.503h-42.2002c-5.25488 0 -9.5 4.25684 -9.5 9.5s4.25586 9.48926 9.5 9.48926
h42.2002c5.24414 0 9.48926 -4.25684 9.48926 -9.48926c0.0107422 -5.24316 -4.24512 -9.5 -9.48926 -9.5zM77.873 327.682c-1.61816 0 -3.2373 0.410156 -4.74414 1.27539l-36.5479 21.1279c-4.54492 2.61621 -6.09668 8.43555 -3.46973 12.9697
s8.43555 6.09668 12.9805 3.45898l36.5479 -21.1064c4.53418 -2.62695 6.09668 -8.44727 3.45898 -12.9697c-1.75195 -3.03711 -4.93359 -4.75586 -8.22559 -4.75586zM77.873 327.682c-1.61816 0 -3.2373 0.410156 -4.74414 1.27539l-36.5479 21.1279
c-4.54492 2.61621 -6.09668 8.43555 -3.46973 12.9697s8.43555 6.09668 12.9805 3.45898l36.5479 -21.1064c4.53418 -2.62695 6.09668 -8.44727 3.45898 -12.9697c-1.75195 -3.03711 -4.93359 -4.75586 -8.22559 -4.75586zM193.203 358.609
c-1.60742 0 -3.2373 0.410156 -4.74512 1.27539c-4.54492 2.61523 -6.09668 8.42383 -3.46973 12.9688l21.1064 36.5479c2.61621 4.53418 8.41406 6.1084 12.9697 3.46973c4.54492 -2.61621 6.09668 -8.43555 3.46973 -12.9697l-21.1064 -36.5479
c-1.75098 -3.03711 -4.93262 -4.74414 -8.22461 -4.74414zM193.203 358.609c-1.60742 0 -3.2373 0.410156 -4.74512 1.27539c-4.54492 2.61523 -6.09668 8.42383 -3.46973 12.9688l21.1064 36.5479c2.61621 4.53418 8.41406 6.1084 12.9697 3.46973
c4.54492 -2.61621 6.09668 -8.43555 3.46973 -12.9697l-21.1064 -36.5479c-1.75098 -3.03711 -4.93262 -4.74414 -8.22461 -4.74414zM41.3477 222.151c-3.28125 0 -6.47363 1.70703 -8.23633 4.7666c-2.60547 4.53418 -1.06445 10.3652 3.48047 12.9697l36.5703 21.084
c4.56641 2.61621 10.375 1.05273 12.9697 -3.46973c2.61523 -4.53418 1.0752 -10.3535 -3.46973 -12.9697l-36.5703 -21.0723c-1.50781 -0.886719 -3.13672 -1.30859 -4.74414 -1.30859zM224.142 327.682c-3.28125 0 -6.47363 1.69629 -8.23633 4.75586
c-2.61621 4.53418 -1.0752 10.3535 3.46973 12.9697l36.5479 21.1064c4.51074 2.62695 10.3418 1.09668 12.9805 -3.45898c2.61621 -4.54492 1.08594 -10.3643 -3.45898 -12.9697l-36.5479 -21.1172c-1.50684 -0.864258 -3.13672 -1.28613 -4.75488 -1.28613z
M41.3477 222.151c-3.28125 0 -6.47363 1.70703 -8.23633 4.7666c-2.60547 4.53418 -1.06445 10.3652 3.48047 12.9697l36.5703 21.084c4.56641 2.61621 10.375 1.05273 12.9697 -3.46973c2.61523 -4.53418 1.0752 -10.3535 -3.46973 -12.9697l-36.5703 -21.0723
c-1.50781 -0.886719 -3.13672 -1.30859 -4.74414 -1.30859zM224.142 327.682c-3.28125 0 -6.47363 1.69629 -8.23633 4.75586c-2.61621 4.53418 -1.0752 10.3535 3.46973 12.9697l36.5479 21.1064c4.51074 2.62695 10.3418 1.09668 12.9805 -3.45898
c2.61621 -4.54492 1.08594 -10.3643 -3.45898 -12.9697l-36.5479 -21.1172c-1.50684 -0.864258 -3.13672 -1.28613 -4.75488 -1.28613zM108.812 358.609c-3.28125 0 -6.47363 1.70703 -8.22461 4.7666l-21.0957 36.5371c-2.61621 4.54492 -1.06348 10.3535 3.46973 12.9697
c4.56738 2.60449 10.3652 1.05273 12.9697 -3.48145l21.084 -36.5479c2.61621 -4.54492 1.06445 -10.3535 -3.46973 -12.9688c-1.48535 -0.865234 -3.12598 -1.27539 -4.7334 -1.27539zM108.812 358.609c-3.28125 0 -6.47363 1.70703 -8.22461 4.7666l-21.0957 36.5371
c-2.61621 4.54492 -1.06348 10.3535 3.46973 12.9697c4.56738 2.60449 10.3652 1.05273 12.9697 -3.48145l21.084 -36.5479c2.61621 -4.54492 1.06445 -10.3535 -3.46973 -12.9688c-1.48535 -0.865234 -3.12598 -1.27539 -4.7334 -1.27539zM340.968 89.1738h-237.443
c-34.9072 0 -63.3076 28.4004 -63.3076 63.3301c0 34.9072 28.4004 63.3066 63.3076 63.3066c0.520508 0 1.05273 0 1.58496 -0.0214844c7.34961 36.1152 39.3516 63.373 77.5732 63.373c4.13477 0 8.24805 -0.354492 12.3936 -1.0752
c16.6279 29.5195 48.2646 48.5527 82.584 48.5527c49.2402 0 89.8789 -37.7109 94.5117 -85.7764c28.7549 -12.2822 47.9209 -40.6162 47.9209 -72.5635c0.0117188 -43.6201 -35.4941 -79.126 -79.125 -79.126zM103.524 184.174
c-17.4482 0 -31.6484 -14.2002 -31.6484 -31.6592c0 -17.4482 14.2002 -31.6367 31.6484 -31.6367h237.443c26.1719 0 47.5 21.3057 47.5 47.4668c0 21.627 -14.7217 40.4717 -35.8057 45.8584l-12.2598 3.11523l0.654297 15.4746
c-0.0673828 33.8213 -28.4561 62.2207 -63.3633 62.2207c-26.4824 0 -49.6504 -16.1396 -59.0615 -41.1143l-5.4873 -14.5547l-14.6543 5.2207c-5.58691 2.00684 -10.7637 2.98242 -15.7852 2.98242c-26.1826 0 -47.5 -21.3057 -47.5 -47.5225
c0.132812 -0.22168 0.233398 -1.08594 0.288086 -1.98438l1.53027 -24.0098l-22.6582 8.08105c-3.90234 1.37402 -7.44922 2.06152 -10.8408 2.06152z" />
    <glyph glyph-name="uniF138" unicode="&#xf138;" 
d="M125.162 356.236c-22.1006 0 -40.0674 17.6035 -39.9131 39.7373c0 21.9678 17.9561 39.7256 39.9131 39.7256c21.9785 0 40.0889 -17.7471 40.0889 -39.7256c0 -22.1338 -18.1104 -39.7373 -40.0889 -39.7373zM72.7051 -26.4463v0l-0.0107422 322.753h-17.4053v-122.307
c0 -23.6982 -34.875 -23.6982 -34.875 0v123.034c0 28.3838 22.8164 51.5527 51.0566 51.5527h106.302c27.8652 0 47.375 -20.7109 51.2109 -44.0898l2.63477 8.71875c3.80273 12.7305 20.8652 35.3604 50.3398 35.3604h82.4385
c29.2646 0 50.1855 -22.9932 54.7051 -35.3604l35.9121 -113.445c7.16406 -24.0508 -25.2754 -29.9922 -32.7705 -6.60254l-32.418 103.15h-18.6387l54.2305 -191.694h-56.4795v-142.919c0 -24.3711 -34.8311 -20.0283 -34.8311 4.36426v138.544h-17.4385v-143.625
c0 -24.7568 -34.8311 -19.334 -34.8311 5.23535v138.39h-51.751l48.6094 191.693h-17.7686l-31.3594 -100.548v-21.792c0.132812 -24.0508 -35.5693 -24.4258 -35.5693 -0.363281l0.683594 122.703h-17.4053v-326.235c0 -12.1807 -2.29297 -22.2988 -14.6602 -22.2988
s-20.2148 9.60059 -20.2148 21.957v187.152h-34.8428v-186.811c0 -12.1689 -6.10645 -22.8174 -18.4736 -22.8174c-12.3896 0 -16.3799 13.9434 -16.3799 26.2998zM325.398 356.071c-23.1914 0 -41.8311 17.7686 -41.8311 39.7363
c0 22.1562 18.6396 39.9131 41.8311 39.9131c22.9932 0 41.7861 -17.7568 41.7861 -39.9131c0 -21.957 -18.793 -39.7363 -41.7861 -39.7363z" />
    <glyph glyph-name="uniF120" unicode="&#xf120;" 
d="M340.268 245.188h30.2266c45.959 0 90.7041 -44.7441 90.7041 -90.7031v-25.9121c0 -45.959 -44.7451 -90.7031 -90.7041 -90.7031h-129.571c-44.5762 0 -87.9395 41.9805 -90.5352 86.3887h35.25c5.17969 -27.4619 34.0361 -51.8242 63.5898 -51.8242h112.974
c32.6543 0 64.4434 29.6982 64.4434 60.4658v17.2822c0 30.7549 -31.7764 60.4648 -64.4434 60.4648h-25.0586h-38.6875h-49.2393c-15.5518 0 -30.9355 -6.75391 -42.8467 -17.2822h-45.79c15.9004 29.3613 47.6777 51.8232 80.3438 51.8232h64.792h34.5527z
M284.129 193.353h45.791c-15.9004 -29.3613 -47.7012 -51.8242 -80.3438 -51.8242h-64.792h-34.5527h-12.9443c-45.959 0 -90.7031 44.7451 -90.7031 90.7031v25.9121c0 45.959 44.7441 90.7041 90.7031 90.7041h112.301c44.5771 0 87.9277 -41.9932 90.5352 -86.3896
h-35.25c-5.17969 27.4629 -34.0361 51.8242 -63.5898 51.8242h-95.7031c-32.6543 0 -64.4434 -29.71 -64.4434 -60.4648v-17.2832c0 -30.7549 31.7773 -60.4648 64.4434 -60.4648h7.93262h38.6992h49.0713c15.5518 0 30.9355 6.75488 42.8457 17.2832z" />
    <glyph glyph-name="uniF110" unicode="&#xf110;" 
d="M452.953 353.775c7.52344 -7.52441 4.85547 -22.3789 -5.90137 -33.0869l-59.9482 -59.7686v-216.897h-68.7334v-68.71h-240.502v309.2h68.6973v68.6611h169.665l49.3965 49.2158c10.7803 10.7207 25.707 13.377 33.1465 5.80469zM160.051 339.678v-55.165h87.3018
l55.3691 55.165h-142.671zM261.162 156.455l-60.4287 60.6338l-30.5996 -74.8154l16.1172 -16.165zM304.825 -11.167v190.145l-33.1836 -33.0625l-113.887 -46.1514c-12.9922 -5.2041 -19.374 1.17773 -14.002 14.2061l46.5117 113.647l43.5195 43.374h-142.407v-282.158
h213.448zM373.559 57.543v189.916l-55.1885 -54.9961v-134.92h55.1885z" />
    <glyph glyph-name="uniF126" unicode="&#xf126;" 
d="M304.765 -33.0039h-113.49v170.229h-170.242v113.491h170.242v170.241h113.49v-170.241h170.23v-113.491h-170.23v-170.229z" />
    <glyph glyph-name="uniF12C" unicode="&#xf12c;" 
d="M400.724 119.807h-130.458v64.5254h-65.2471v-129.063h65.2471v32.293h130.445v-129.075h-130.457v64.5254h-97.8887v258.092h-65.2354v129.063h130.482v-129.063h-32.5938v-64.5146h65.2471v32.2695h130.458v-129.052z" />
    <glyph glyph-name="uniF123" unicode="&#xf123;" 
d="M173.836 162.585v-96.0518c0 -13.0166 -10.8174 -23.5322 -24.0859 -23.5322h-62.5674c-13.3047 0 -24.0859 10.5156 -24.0859 23.5322v312.841c0 13.0166 10.7812 23.5322 24.0859 23.5322h62.5674c13.2686 0 24.0859 -10.5156 24.0859 -23.5322v-123.767
l249.167 141.759c22.7148 13.0283 27.6904 2.51172 27.6904 -23.5205v-329.475c0 -26.0205 -4.97559 -36.5361 -27.6904 -23.5205z" />
    <glyph glyph-name="uniF108" unicode="&#xf108;" 
d="M63.041 283.157v50.6523h378.157v-50.6523h-378.157zM63.041 166.674v50.6523h378.157v-50.6523h-378.157zM63.041 50.1768v50.666h378.157v-50.666h-378.157z" />
    <glyph glyph-name="uniF116" unicode="&#xf116;" 
d="M172.189 371.153l42.8574 -204.41l166.252 -100.595c-34.1924 -48.8438 -88.8164 -80.8604 -150.688 -80.8604c-103.287 0 -187.044 88.6484 -187.044 197.896c0 87.7588 53.9023 162.105 128.622 187.969zM329.596 406.62l-81.4141 -198.63l-42.8818 201.515
c18.2803 6.33398 37.9902 9.95117 58.4346 9.95117c23.1475 0 45.3936 -4.69922 65.8613 -12.8359zM357.971 374.783c70.0078 -28.9648 119.765 -100.234 119.753 -183.643c0 -43.7715 -13.7373 -84.1055 -36.9092 -117.036l-168.043 100.402z" />
    <glyph glyph-name="uniF11E" unicode="&#xf11e;" 
d="M265.345 191.104c44.4082 0 80.5596 36.1514 80.5596 80.5605c0 44.4082 -36.1514 80.5596 -80.5596 80.5596c-44.4092 0 -80.5605 -36.1514 -80.5605 -80.5596c0 -44.4092 36.1514 -80.5605 80.5605 -80.5605zM265.345 405.936
c74.1055 0 134.271 -60.1533 134.271 -134.271c0 -74.1309 -134.271 -295.391 -134.271 -295.391s-134.271 221.26 -134.271 295.391c0 74.1172 60.1396 134.271 134.271 134.271z" />
    <glyph glyph-name="uniF11D" unicode="&#xf11d;" 
d="M191.299 76.4238l-116.184 -58.085v290.451l116.184 58.085v-290.451zM324.079 18.3389l-116.184 58.085v290.451l116.184 -58.085v-290.451zM456.847 76.4238l-116.17 -58.085v290.451l116.17 58.085v-290.451z" />
    <glyph glyph-name="uniF132" unicode="&#xf132;" 
d="M350.8 14.8994l-111.794 111.781l-111.757 -111.781l-74.5127 74.5127l111.769 111.77l-111.769 111.758l74.5127 74.5127l111.757 -111.77l111.794 111.77l74.4893 -74.5127l-111.77 -111.758l111.77 -111.77z" />
    <glyph glyph-name="uniF114" unicode="&#xf114;" 
d="M145.46 168.45c-2.45215 -0.745117 -2.63184 -3.22168 4.14648 -7.35547c1.875 -2.44043 5.27637 -4.71191 8.28027 -3.56934c1.89941 5.26367 -1.875 8.47266 -6.00879 9.79492v0.384766c-0.9375 0.360352 -2.45215 0.745117 -3.41309 0.745117
c-1.12988 0.191406 -2.06738 0.191406 -3.00488 0zM183.907 220.839c1.32227 -0.180664 -0.384766 -2.05566 -2.25977 -1.50293h-0.384766c-0.360352 0 -0.552734 0.56543 -0.732422 0.769531c1.66992 0.733398 2.81152 0.733398 3.37695 0.733398zM223.304 236.294
c-2.83594 -0.552734 -3.58105 -2.43945 2.63184 -6.7666c0.9375 0.180664 6.22559 1.29883 3.0166 -1.89844c9.79492 5.8291 -0.564453 9.60254 -5.64844 8.66504zM331.675 264.935c-2.45215 -0.180664 -2.84863 -2.05566 1.69434 -6.22559
c-4.33887 -9.7832 6.79004 -10.3359 10.9365 -3.75c0.745117 5.8291 -8.48438 10.1797 -12.6309 9.97559zM223.664 309.234c-0.733398 0 -1.51367 -0.384766 -2.63184 -0.756836c5.27637 -9.79492 -6.79004 -22.0537 2.25977 -30.5391
c10.5635 4.33887 12.9912 32.0527 0.37207 31.2959zM262.496 330.712c-12.8115 -1.68262 -25.8154 -14.1338 -13.7617 -26.3809c8.48535 -10.7451 -12.4385 -32.4023 7.36816 -38.0752c7.9082 17.7275 29.3848 31.6572 24.1084 53.1582
c-2.24707 9.0498 -9.97461 12.2588 -17.7148 11.2979zM247.798 334.101c-0.757812 0 -1.51465 -0.360352 -2.25977 -0.37207c-8.85742 -1.875 -6.0459 -16.5859 4.51855 -6.40625c3.0166 1.32227 4.53125 6.40625 0 6.40625
c-0.745117 0.179688 -1.32227 0.37207 -2.25879 0.37207zM192.572 363.125c-28.4717 -24.3135 -71.7988 -62.5557 -89.1768 -98.2148c-7.9082 -22.4268 -6.58691 -45.0449 -5.64941 -68.6016c7.9209 -22.7988 23.376 -41.6562 35.8154 -62.0029
c7.74023 -9.97559 3.96582 -21.2969 3.38965 -32.0293c-0.180664 0 0.192383 -0.384766 0.192383 -0.384766c-0.553711 -6.61035 0.564453 -12.8242 6.0332 -18.4609c10.7324 -13.5811 26.7646 -24.1211 32.4131 -40.8867
c0.192383 -0.192383 0.745117 -0.192383 0.9375 -0.384766c12.6201 -7.72754 27.8955 -14.1455 42.582 -18.46c7.36719 0.552734 -0.541016 2.42773 25.2744 4.87891v0.373047c0 4.16992 19.7949 10.5762 29.5781 17.7148
c16.2246 19.6025 -17.3311 35.2744 -33.7119 29.6016c-18.8457 12.6201 -32.7988 32.042 -54.1074 41.4639c-17.5234 16.9707 -56.7275 6.40625 -56.1504 38.4473c1.88672 15.083 -10.3721 22.4268 -19.4219 29.6016c-7.16309 23.5566 35.8154 32.2217 36.3799 6.40625
c14.1338 0.756836 19.2178 25.4434 35.4307 29.0244c8.47266 7.15137 31.1035 -0.577148 22.9912 14.3145c8.125 7.72754 31.8613 7.54688 20.1787 25.4551c-3.77344 17.7148 -25.4551 26.2002 -32.6182 6.22559c-19.6016 -5.27637 -11.6934 37.125 8.30469 31.4766
c14.3262 -0.769531 12.4395 11.6699 3.57031 15.8281c0 0.564453 -0.180664 0.9375 -0.733398 0.37207c-1.51465 0.56543 -3.19727 1.11816 -5.0957 1.11816c-19.6025 10.7568 19.4219 38.2666 -6.40625 47.124zM270.416 387.835
c-5.08398 0 -10.1797 -0.396484 -15.1074 -0.756836c-2.62012 -0.552734 -5.45605 -0.756836 -8.29199 -1.1416l-3.0166 -0.37207c-10.3604 -1.50293 -20.3477 -3.19727 -29.9629 -6.40625c25.4434 1.875 51.4639 1.32227 74.4551 -10.1797
c6.02148 -19.4102 42.4131 -0.384766 40.5146 -22.042l1.1416 -1.32227c-0.56543 -0.37207 0.576172 -4.32617 1.32129 -0.9375c6.20215 -7.16309 19.3984 -21.8613 5.44434 -19.9863c-18.2559 2.47559 -13.5439 -33.7119 -0.179688 -40.3223
c12.4395 -6.79004 19.6143 6.79004 6.61035 13.5566c-1.70703 16.9707 28.2676 -10.3359 15.0713 -19.6016l-1.51465 -1.11816c0.577148 2.43945 -0.745117 0.180664 -0.745117 -0.37207c-15.0713 -10.9248 -6.40625 -36.5723 -12.4395 -53.7227
c-10.3594 -23.1846 26.2002 -13.0049 20.7441 5.27539c-6.61035 16.79 27.7021 9.0625 20.335 21.1172c20.9365 -11.1172 18.8574 18.6406 10.1797 28.4473c4.15918 16.0332 14.915 -1.69434 9.80762 -10.3594c0.768555 -8.29297 7.91992 -10.1797 13.5684 -12.6318
l1.14258 -0.204102c4.89062 -2.44043 7.91992 -5.46875 2.45117 -14.6865c-6.04492 -20.7441 -26.9697 -21.8623 -43.915 -18.0879c-17.1504 -7.16309 -20.3594 -28.0879 -30.167 -42.2217c-9.61426 -17.5225 -17.7031 -43.3379 -0.360352 -58.9863
c16.5732 -15.8281 35.623 -2.0791 49.3721 8.67773c26.1758 3.38867 28.6523 -27.5225 15.8281 -43.3389c-0.577148 -2.25977 -0.9375 -3.77441 -0.9375 -4.91602c27.8955 32.6064 44.8408 74.4551 44.8408 120.438c0 7.15137 -0.564453 14.1338 -1.50195 21.1045
c-10.5527 -5.8291 -29.3975 26.0078 -9.99902 10.9365c3.59277 0.192383 6.04492 1.31055 7.73926 3.00488c-2.0791 11.502 -5.08398 22.7988 -9.42188 33.3633c-1.875 2.25977 -3.55762 4.32715 -5.26465 5.64844c0.192383 2.46387 0 4.53125 -0.384766 6.79102
c0 0.179688 0.192383 0.384766 0 0.384766c-30.166 62.1709 -93.8525 104.969 -167.357 104.969zM270.416 408.939c114.393 0 207.319 -92.9268 207.319 -207.318c0 -114.416 -92.9268 -207.319 -207.319 -207.319c-114.416 0 -207.319 92.9033 -207.319 207.319
c0 114.392 92.9033 207.318 207.319 207.318z" />
    <glyph glyph-name="uniF10D" unicode="&#xf10d;" 
d="M359.689 186.273c0 0 20.2637 0.804688 20.2754 -17.5713h-270.092c0 20.6719 18.5088 17.583 18.5088 17.583c5.93652 25.0703 18.4844 45.9951 37.8096 62.8564c19.0859 16.4297 41.8604 25.8877 67.8447 28.4238h0.998047v153.248h17.1504v-13.2207
c13.9775 5.55273 27.125 8.5459 39.4326 8.5459c3.68945 0 8.01562 -0.625 13.2676 -1.89941c5.19238 -1.18945 10.8408 -2.5957 16.7539 -4.45898c6.18945 -1.85059 11.7549 -3.49707 17.1025 -4.56641c5.1084 -1.34668 9.5791 -1.91113 13.1367 -1.91113
c6.81445 0 12.835 1.30957 18.3877 3.68945v-72.3516c-6.69434 -1.77832 -12.7393 -2.5957 -18.3877 -2.5957c-3.55762 0 -8.02832 0.504883 -13.1367 1.73047c-5.34766 1.23828 -10.9131 2.7168 -17.1025 4.63965c-5.9248 1.69434 -11.79 3.19629 -17.2822 4.56641
c-5.4082 1.21387 -10.0596 1.81543 -13.6768 1.81543c-1.8877 0 -4.73535 -0.396484 -8.65332 -1.38281c-4.03809 -0.876953 -8.11328 -2.11523 -12.3672 -3.61719c-4.33887 -1.5625 -8.05273 -3.00488 -11.5264 -4.24219
c-2.45117 -0.914062 -4.32617 -1.14258 -5.94824 -1.41895v-66.582h1.8623c26.2002 -2.53613 48.8076 -11.9824 67.8809 -28.4238c19.71 -16.8623 32.2334 -37.7861 37.7617 -62.8564zM41.5 149.773h405.612v-198.666h-140.1v36.0557h-127.18v-36.0557h-138.333v198.666z
" />
    <glyph glyph-name="uniF121" unicode="&#xf121;" 
d="M425.227 213.855c23.3398 -14.2422 23.0273 -37.8701 -0.588867 -52.0996l-299.068 -179.989c-23.6406 -14.2422 -46.6562 -2.72852 -46.6562 25.7559v360.566c0 28.4844 23.0156 39.9854 46.6562 25.7441z" />
    <glyph glyph-name="uniF124" unicode="&#xf124;" 
d="M210.323 290.485v0.0126953h-121.11v-80.3203h281.714l25.6475 25.6357c7.65625 7.64355 20.1309 7.64355 27.7988 0l25.6475 -25.6357h24.71v-32.125h-24.7461l-25.6113 -25.6113c-7.65527 -7.65625 -20.1309 -7.65625 -27.7988 0l-25.6113 25.6113h-281.75v-80.3193
h24.7109l25.6475 25.6348c7.65527 7.64355 20.1426 7.64355 27.7979 0l25.6475 -25.6348h281.714v-32.126h-281.749l-25.6123 -25.6113c-7.65527 -7.66797 -20.1426 -7.66797 -27.7988 0l-25.6113 25.6113h-24.7461v-80.3193h-32.125v417.643h32.125v-80.3193h121.087
l25.6475 25.6348c7.65527 7.63184 20.1426 7.63184 27.7988 0l25.6475 -25.6348h185.337v-32.126h-185.385l-25.6113 -25.6113c-7.65625 -7.65527 -20.1436 -7.65527 -27.7988 0z" />
    <glyph glyph-name="uniF100" unicode="&#xf100;" 
d="M106.829 48.7812h314.135v-20.5059h-314.135h-20.5059v20.5059v314.135h20.5059v-314.135zM134.326 205.663c-3.55957 0 -6.99219 1.97949 -8.68652 5.38281c-2.36328 4.78516 -0.413086 10.5947 4.37207 12.959l71.1709 35.3145l59.9932 48.1318
c3.14746 2.52051 7.56152 2.81934 11.0361 0.725586l54.2695 -32.7373l66.0732 67.5684c3.74512 3.81641 9.86816 3.8877 13.6709 0.157227c3.83008 -3.73145 3.88672 -9.85449 0.15625 -13.6709l-71.4277 -73.0371c-3.13281 -3.21777 -8.07422 -3.83008 -11.9053 -1.50879
l-55.0371 33.208l-55.5361 -44.5576c-0.541016 -0.413086 -1.125 -0.811523 -1.75195 -1.11035l-72.1113 -35.8135c-1.38086 -0.683594 -2.84766 -1.01172 -4.28613 -1.01172zM392.555 185.955c3.74512 3.80176 9.88281 3.87305 13.6709 0.142578
c3.83008 -3.73145 3.88672 -9.83984 0.15625 -13.6562l-71.4277 -73.0371c-1.80859 -1.86523 -4.25781 -2.89062 -6.84961 -2.91895h-0.0566406c-2.5498 0 -5.0127 1.02539 -6.83594 2.83301l-54.6816 54.7393l-54.0547 -43.3613
c-2.15039 -1.72266 -4.98438 -2.44922 -7.7041 -1.97949l-72.1113 12.5176c-5.25488 0.911133 -8.78613 5.92383 -7.875 11.1777c0.911133 5.25488 6.03809 8.75781 11.1787 7.875l67.8252 -11.7617l57.4014 46.0234c3.87305 3.07617 9.41309 2.77637 12.8877 -0.697266
l53.8984 -53.9561z" />
    <glyph glyph-name="uniF127" unicode="&#xf127;" 
d="M25.2744 251.558h453.963v-113.49h-453.963v113.49z" />
    <glyph glyph-name="uniF104" unicode="&#xf104;" 
d="M184.807 99.1191l-99.6797 -49.8398v249.2l99.6797 49.8408v-249.201zM298.728 49.2793l-99.6807 49.8398v249.201l99.6807 -49.8408v-249.2zM412.647 99.1191l-99.6807 -49.8398v249.2l99.6807 49.8408v-249.201z" />
    <glyph glyph-name="uniF119" unicode="&#xf119;" 
d="M330.604 408.615l91.9775 -89.2256v-315.232c0 -16.7178 -18.3516 -35.623 -38.9277 -35.623h-254.828c-17.6191 0 -36.7168 18.7363 -36.7168 36.1758v367.742c0 17.8105 18.7129 36.7285 37.6299 36.7285h200.865v-0.56543zM385.866 5.25098h0.0117188v275.415
h-55.6221c-17.2822 0 -36.1748 15.9727 -36.1748 35.6113v56.1748h-165.255v-367.201h257.04zM275.704 225.586v-73.4453h55.0693l-73.4336 -73.4453l-73.4326 73.4453h55.0811v73.4453h36.7158z" />
    <glyph glyph-name="uniF12D" unicode="&#xf12d;" 
d="M453.651 271.934c20.2871 0 21.2842 -10.2764 20.2031 -22.835l-18.1836 -206.593c-1.12988 -12.5596 -3.56934 -22.835 -24.2051 -22.835h-354.981c-20.2393 0 -23.0996 10.2754 -24.2051 22.835l-18.1836 206.593c-1.09375 12.5713 -0.0722656 22.835 20.1904 22.835
h399.365zM439.014 322.386l4.44629 -18.3516h-372.757l6.42969 59.7783c1.3584 12.5352 12.4385 22.7861 24.625 22.7861h71.6768c12.2109 0 29.2646 -7.28223 37.8936 -16.2002l13.1123 -13.4727c8.64062 -8.91699 25.707 -16.2002 37.8809 -16.2002h150.06
c12.2109 0 24.1689 -8.25684 26.6328 -18.3398z" />
    <glyph glyph-name="uniF11A" unicode="&#xf11a;" 
d="M400.24 312.155c4.13379 -13.0762 6.88672 -24.4336 6.88672 -35.1064c0 -17.5586 -2.76465 -32.3535 -7.5957 -43.375c-5.14453 -12.042 -11.334 -21.6807 -18.9053 -29.5889c-7.24707 -8.26855 -15.8525 -15.1553 -24.458 -20.6357l-25.8154 -17.2109
c-8.28125 -5.17969 -15.1436 -11.7422 -20.9961 -19.3018c-6.17773 -7.5957 -9.65137 -16.5371 -11.0215 -27.5459v-21.0088h-74.0342v24.8066c1.07031 15.8164 3.79785 29.2529 8.97852 39.9131c4.79492 10.6602 10.9844 19.9746 17.21 27.5469
c6.52637 7.24707 13.4131 13.7725 21.0088 19.2891c7.53516 5.17969 14.1211 10.6602 20.6475 16.165c5.84082 5.19238 10.6846 11.7178 14.7832 18.2686c3.80957 6.51367 5.52832 15.1191 5.52832 25.1426c0 16.8379 -4.85547 29.2529 -13.4609 37.1484
c-9.27832 8.26953 -21.6455 12.4033 -37.1855 12.4033c-10.624 0 -20.3105 -2.09082 -27.834 -5.85254c-7.5957 -4.4834 -14.1221 -9.29102 -18.9658 -15.5039c-5.16797 -6.5625 -8.94141 -14.1338 -11.3574 -22.7393c-2.0791 -8.60547 -3.10059 -17.8838 -3.10059 -27.5342
h-68.8545c0 19.3018 3.77441 37.8584 10.3125 54.3955c6.20117 16.5498 15.5039 31.6807 27.21 44.7568c12.0547 12.7393 25.8271 23.0635 42.7012 30.623c16.5381 6.89844 35.4424 10.6963 55.7783 10.6963c26.5244 0 48.5186 -4.13379 66.4385 -11.6934
c17.5469 -7.5957 32.041 -17.2227 43.0381 -28.5801c10.6484 -11.3701 18.2559 -23.0635 23.0635 -35.4785zM224.47 -9.92871v68.8535h68.8535v-68.8535h-68.8535z" />
    <glyph glyph-name="uniF106" unicode="&#xf106;" 
d="M456.407 238.999l1.23828 -5.63867l-0.796875 -102.927c-0.427734 -69.8906 -57.2598 -127.135 -127.277 -127.135h-146.26c-70.0605 0 -127.277 57.2441 -127.277 127.135v148.58c0 70.0469 57.2168 127.434 127.277 127.434h89.0293
c32.8369 -3.91602 80.6553 -32.0684 98.2842 -69.5195c4.85547 -10.5088 7.41895 -12.1182 11.4492 -43.2324c2.16406 -16.0205 3.23242 -27.8965 10.3809 -34.4893c10.0957 -9.1709 47.5186 -2.97656 54.9375 -8.75781l5.63965 -4.44336zM184.878 302.324
c-13.4707 0 -24.3643 -10.9219 -24.3643 -24.25c0 -13.3291 10.8936 -24.3789 24.3643 -24.3789h70.5742c13.4561 0 24.3789 11.0645 24.3789 24.3789s-10.9229 24.25 -24.3789 24.25h-70.5742zM328.304 108.104c13.3428 0 24.2646 11.0225 24.251 24.2227
c0 13.3428 -10.9082 24.251 -24.2656 24.251h-143.411c-13.4707 0 -24.3643 -10.8936 -24.3643 -24.251c0 -13.2002 10.8936 -24.2227 24.3643 -24.2227h143.426z" />
    <glyph glyph-name="uniF139" unicode="&#xf139;" 
d="M400.857 320.081l-328.132 -0.0117188c-10.0303 0 -18.2266 -8.17285 -18.2266 -18.2383v-309.87h364.572v309.882c0 10.042 -8.17188 18.2383 -18.2139 18.2383zM400.857 356.51v0c30.1973 0 54.6787 -24.4463 54.6787 -54.6787v-346.287h-437.466v346.299
c0 30.2207 24.4697 54.667 54.6787 54.667h328.108zM200.333 -26.2656v127.596h72.917v-127.596h-72.917zM200.333 137.771v54.667h72.917v-54.667h-72.917zM309.702 137.771v54.667h72.9287v-54.667h-72.9287zM90.9629 137.771v54.667h72.9297v-54.667h-72.9297z
M200.333 228.938v54.667h72.917v-54.667h-72.917zM309.702 228.938v54.667h72.9287v-54.667h-72.9287zM90.9629 228.938v54.667h72.9297v-54.667h-72.9297zM309.702 46.6631v54.667h72.9287v-54.667h-72.9287zM90.9629 46.6631v54.667h72.9297v-54.667h-72.9297z
M273.562 401.59c0.34668 -1.09082 0.0478516 -2.27734 -0.683594 -3.0918l-15.8418 -15.4463l3.73926 -21.7852c0.179688 -1.15039 -0.288086 -2.26465 -1.19824 -2.95996c-0.503906 -0.359375 -1.11426 -0.539062 -1.75 -0.539062
c-0.466797 0 -0.958008 0.0957031 -1.37793 0.323242l-19.5566 10.3057l-19.5918 -10.3057c-1.00684 -0.527344 -2.24121 -0.443359 -3.15137 0.21582c-0.947266 0.707031 -1.41406 1.80957 -1.21094 2.95996l3.73926 21.7734l-15.8652 15.4463
c-0.803711 0.826172 -1.09082 2.00098 -0.743164 3.0918c0.334961 1.04199 1.26953 1.85645 2.39648 2.00098l21.9053 3.19922l9.79004 19.8203c1.01855 2.04883 4.34961 2.04883 5.30859 0l9.80176 -19.8203l21.8809 -3.1875
c1.15039 -0.143555 2.08496 -0.958984 2.40918 -2.00098zM364.704 401.59c0.323242 -1.09082 0.0605469 -2.27734 -0.730469 -3.0918l-15.8418 -15.4463l3.73828 -21.7852c0.15625 -1.15039 -0.311523 -2.26465 -1.19824 -2.95996
c-0.50293 -0.359375 -1.11426 -0.539062 -1.74902 -0.539062c-0.443359 0 -0.93457 0.0957031 -1.37793 0.323242l-19.5684 10.3057l-19.6162 -10.3057c-0.983398 -0.527344 -2.22949 -0.443359 -3.16406 0.21582c-0.922852 0.707031 -1.38965 1.80957 -1.17383 2.95996
l3.72656 21.7734l-15.8174 15.4463c-0.81543 0.826172 -1.06738 2.00098 -0.743164 3.0918c0.347656 1.04199 1.28223 1.85645 2.43262 2.00098l21.8809 3.19922l9.76562 19.8203c1.03125 2.04883 4.35059 2.04883 5.35645 0l9.75488 -19.8203l21.8926 -3.1875
c1.1748 -0.143555 2.08496 -0.958984 2.43262 -2.00098zM182.454 401.59c0.311523 -1.09082 0.0478516 -2.27734 -0.779297 -3.0918l-15.8535 -15.4463l3.75098 -21.7734c0.179688 -1.15039 -0.275391 -2.26465 -1.1748 -2.95996
c-0.514648 -0.359375 -1.15039 -0.539062 -1.74902 -0.539062c-0.479492 0 -0.982422 0.0957031 -1.39062 0.324219l-19.6035 10.3047l-19.5566 -10.3047c-1.00684 -0.527344 -2.24121 -0.443359 -3.16309 0.214844c-0.922852 0.707031 -1.36621 1.80957 -1.18652 2.95996
l3.73828 21.7734l-15.8418 15.4463c-0.802734 0.814453 -1.07812 2.00098 -0.742188 3.0918c0.359375 1.04199 1.28223 1.85742 2.43262 2.00098l21.8809 3.1875l9.79004 19.8203c1.05469 2.04883 4.34961 2.04883 5.34473 0l9.77734 -19.8203l21.8936 -3.1875
c1.15039 -0.143555 2.07324 -0.958984 2.43262 -2.00098z" />
    <glyph glyph-name="uniF11F" unicode="&#xf11f;" 
d="M212.042 50.5244c0 -24.374 -18.9766 -44.2041 -42.4971 -44.2041h-28.3271c-23.5205 0 -42.498 19.8428 -42.498 44.2041v308.214c0 24.3613 18.9775 44.1924 42.498 44.1924h28.3271c23.5205 0 42.4971 -19.8311 42.4971 -44.1924v-308.214zM438.675 50.5244
c0 -24.374 -18.9766 -44.2041 -42.4971 -44.2041h-28.3154c-23.5205 0 -42.4971 19.8428 -42.4971 44.2041v308.214c0 24.3613 18.9766 44.1924 42.4971 44.1924h28.3154c23.5205 0 42.4971 -19.8311 42.4971 -44.1924v-308.214z" />
    <glyph glyph-name="uniF12E" unicode="&#xf12e;" 
d="M331.69 242.681v0c0 -71.2314 -57.7588 -128.991 -129.003 -128.991c-71.2207 0 -128.979 57.7471 -128.979 128.991c0 71.2197 57.7471 128.979 128.979 128.979c71.2441 0 129.003 -57.7471 129.003 -128.979zM202.688 145.935v0
c53.3486 0 96.7461 43.3975 96.7461 96.7461s-43.3975 96.7471 -96.7461 96.7471c-53.3369 0 -96.7354 -43.3984 -96.7354 -96.7471s43.3984 -96.7461 96.7354 -96.7461zM202.688 145.935zM408.234 82.7422v0c12.5957 -12.5947 12.5957 -33.0137 0 -45.6094
c-12.583 -12.583 -33.002 -12.583 -45.6084 0l-78.9004 78.9238c18.292 11.7656 33.832 27.3174 45.5977 45.5977zM408.234 82.7422z" />
  </font>
</defs>
</svg>
